SEGA 32X for RetroArch android/iOS!

retroarchRetroArch官方最新的推特消息称安卓和iOS的RetroArch将会很快加入基于Picodrive的新模块,而这个MD模拟器模块和Genesis Plus GX模块最大的区别是Picodrive在android/iOS两大平台上支持全速的SEGA 32X的模拟。这将是RetroArch登场以来,继VB之后在移动平台上填补的第二个主机项目空白!

说起这个Picodrive我相信大家不会陌生,他是 神级街机模拟器FinalBurn的作者Dave的另一个神级作品。早在S60v3称霸智能手机的岁月里,它的移植版就可以在诺基亚那些毫无节操的低配但是昂贵的硬件上流畅的模拟MD,这么优秀的ARM源码血统的传承怎么能浪费呢?

目前何时才能发表这个新核心还没有时间表,请大家耐心等待吧~~~同时跪求atari jaugar和NEC PC-FX的android libretro Orz

原文需要科学上网。转帖如下:

libretro ‏ 14时

and there will be a new core – Picodrive (Sega Genesis/Sega CD AND 32X). And yes, 32X is fullspeed on Android/iOS.

RetroArch Android will get a second frontend (Java JNI) that *might* work better for some people on certain devices (no promises)…

In more constructive news – OSX port is coming along and looking great – ARM LInux support is getting a shot in the arm…

大家如果看下去,会发现很多有意思的互喷,我看到的许多优秀的免费模拟器作者都充满了愤怒。何苦呢?何必呢?

“SEGA 32X for RetroArch android/iOS!”的15个回复

        1. OK!我用MD.emu在system菜单里设置好JUE三个BIOS的位置(改名成BIOS_CD_E.bin,BIOS_CD_J.bin,BIOS_CD_U.bin,三个128K的BIOS文件)。下载下来的游戏镜像解压缩可能包括ISO+MP3,所有文件放在同一目录下,查看CUE文件,里面应该是WAV音轨,所以要把MP3或者OGG的压缩文件用工具转换成WAV,文件名必须和CUE里面的列表一一对应的。然后用md.emu载入CUE文件就行了。我测试露娜银色之星通过。

        2. 用文本编辑器打开CUE文件,一般是一个track 1到track N的列表,你如果只有CUE+bin文件,那么可能会没有CD音轨。只要你的CUE里对应的文件都在就行啦。把这些文件和CUE放在同一目录下,载入CUE,MD.emu就会运行先运行BIOS再开始加载游戏咯。音频转换随便哪个工具(mp3>WAV)都行只要转换后文件名和CUE里保持一致。

    1. 老大,你还愚钝?乃是在鄙视俺这个群雄起源的伸手党咩?呵呵。

      CUE文件就是类似如下的格式
      FILE “Track01.iso” BINARY
      TRACK 01 MODE1/2048
      INDEX 01 00:00:00
      FILE “Track02.wav” WAVE
      TRACK 02 AUDIO
      PREGAP 00:02:00
      INDEX 01 00:00:00
      FILE “Track03.wav” WAVE
      TRACK 03 AUDIO
      INDEX 00 00:00:00
      INDEX 01 00:02:00

      注意file后面的那个引号里的文件名,你要保证诸如Track01.iso,Track03.wav这些所有文件和这个CUE文件放在一个目录下。
      另外,你用md.emu启动CUE时,BIOS运行画面有吗?我把我的三个BIOS发到你的qxqy19@163.com,查收一下。

    2. 好了,我测试过了,中文名的问题哦。md.emu不支持中文名。把bin/cue文件改名成san3.bin、san3.cue。然后编辑san3.cue,把里面的第一轨“三国志3.bin”改成”san3.bin”,使用日版BIOS,运行出现播放器画面,箭头在cd-rom上再按start就开始了,不过这个记忆卡这么设置我不知道哦。有音效,不错的!

发表评论

电子邮件地址不会被公开。 必填项已用*标注